[Audio Latino] Paranormal.Activity.The.Marked.Ones.2014.1080p

Paranormal_Activity_The_Marked_Ones_2014_BR

 

Paranormal.Activity.The.Marked.Ones.2014.1080p.BluRay.

 

Sinopsis

Nos encontramos ante un Spin-off de la saga Paranormal Activity que se desvía de la línea narrativa principal pero mantiene el registro con cámaras de vídeo para contar una nueva historia de posesiones demoniacas, espiritismo y santería. El film lo protagoniza un joven, Jesse (Andrew Jacobs), el barrio latino donde vive, es sorprendido por el asesinato de una vecina conocida por su mal genio y hermetismo. Jesse y sus amigos deciden visitar la casa de la difunta donde tienen una experiencia escalofriante relacionada con la magia negra. A partir de ese momento Jesse habrá sido señalado por una entidad demoníaca. A partir de ahí se sucederán una serie de misteriosos eventos. La cosa empezará con unas misteriosas marcas en el brazo de Jesse (como si le hubiesen mordido) y comienza a ser perseguido por fuerzas misteriosas. Su familia y amigos tratan de salvarle (a través de aterradoras sesiones espiritistas y conjuros de santería) y de alejar el mal que sin saber porqué le persigue. Así, comenzará una dura lucha entre el bien y el mal, en la que no queda claro quién acabará venciendo a quién. La presencia de dos niñas llamadas Katie y Kristi, están relacionadas con los misteriosos fenómenos que le están ocurriendo.

Detalles Tecnicos

Format : Matroska
File size : 7.78 GiB
Duration : 1h 41mn
Overall bit rate : 11.0 Mbps
Encoded date : UTC 2014-03-29 19:13:34
Writing application : mkvmerge v5.7.0 (‘The Whirlwind’) built on Jul

8 2012 20:08:51
Writing library : libebml v1.2.3 + libmatroska v1.3.0

Video
ID : 1
Format : AVC
Format/Info : Advanced Video Codec
Format profile : High@L4.1
Format settings, CABAC : Yes
Format settings, ReFrames : 4 frames
Muxing mode : Container profile=Unknown@4.1
Codec ID : V_MPEG4/ISO/AVC
Duration : 1h 41mn
Bit rate : 9 324 Kbps
Width : 1 920 pixels
Height : 1 080 pixels
Display aspect ratio : 16:9
Frame rate : 23.976 fps
Color space : YUV
Chroma subsampling : 4:2:0
Bit depth : 8 bits
Scan type : Progressive
Bits/(Pixel*Frame) : 0.188
Stream size : 6.42 GiB (83%)
Writing library : x264 core 140 r2377 1ca7bb9
Encoding settings : cabac=1 / ref=4 / deblock=1:0:0 /

Audio #1
ID : 2
Format : DTS
Format/Info : Digital Theater Systems
Codec ID : A_DTS
Duration : 1h 41mn
Bit rate mode : Constant
Bit rate : 1 510 Kbps
Channel(s) : 6 channels
Channel positions : Front: L C R, Side: L R, LFE
Sampling rate : 48.0 KHz
Bit depth : 24 bits
Stream size : 1.07 GiB (14%)
Title : English

Audio #2
ID : 3
Format : AC-3
Format/Info : Audio Coding 3
Mode extension : CM (complete main)
Codec ID : A_AC3
Duration : 1h 41mn
Bit rate mode : Constant
Bit rate : 192 Kbps
Channel(s) : 2 channels
Channel positions : Front: L R
Sampling rate : 48.0 KHz
Bit depth : 16 bits
Video delay : 1s 0ms
Stream size : 139 MiB (2%)
Title : Español Latino
Language : Spanish

1_03_04_14_11_18_28

descargar aqui

1 Solo Link para Descargar !!

http://adf.ly/kYHqO

Anuncios

Responder

Introduce tus datos o haz clic en un icono para iniciar sesión:

Logo de WordPress.com

Estás comentando usando tu cuenta de WordPress.com. Cerrar sesión / Cambiar )

Imagen de Twitter

Estás comentando usando tu cuenta de Twitter. Cerrar sesión / Cambiar )

Foto de Facebook

Estás comentando usando tu cuenta de Facebook. Cerrar sesión / Cambiar )

Google+ photo

Estás comentando usando tu cuenta de Google+. Cerrar sesión / Cambiar )

Conectando a %s