Shakira.Oral.Fixation.Tour.2007

625_front

Shakira.Oral.Fixation.Tour.2007

Canciones 

1.Intro/Estoy Aqui
2.Te Dejo Madrid
3.Don’t Bother
4.Antologia
5.Hey You
6.Inevitable
7.Si Te Vas
8.La Tortura (featuring Alejandro Sanz)
9.NO
10.Whenever, Wherever
11.La Pared
12.Underneath Your Clothes
13.Pies Descalzos
14.Ciega, Sordomuda
15.Ojos Asi
16.Hips Don’t Lie(featuring Wyclef Jean)

 

Detalles tecnicos

Duration : 1h 32mn

Overall bit rate : 6 735 Kbps
Encoded date : UTC 2007-12-25 08:44:49
Writing application : mkvmerge v2.1.0 (‘Another Place To
Fall’) built on Aug 19 2007 13:40:07
Writing library : libebml v0.7.7 + lib matroska v0.8.1

Video
ID : 1
Format : AVC
Format/Info : Advanced Video Codec
Format profile : High@L5.1
Format settings, CABAC : Yes
Format settings, ReFrames : 9 frames
Codec ID : V_MPEG4/ISO/AVC
Duration : 1h 32mn
Bit rate : 5 225 Kbps
Width : 1 280 pixels
Height : 720 pixels
Display aspect ratio : 16:9
Frame rate : 23.976 fps
Color space : YUV
Chroma subsampling : 4:2:0
Bit depth : 8 bits
Scan type : Progressive
Bits/(Pixel*Frame) : 0.236
Stream size : 3.31 GiB (76%)
Title : Shakira
Writing library : x264 core 57 svn-709C

Language : English
Default : Yes
Forced : No

Audio
ID : 2
Format : DTS
Format/Info : Digital Theater Systems
Codec ID : A_DTS
Duration : 1h 32mn
Bit rate mode : Constant
Bit rate : 1 510 Kbps
Channel(s) : 6 channels
Channel positions : Front: L C R, Side: L R, LFE
Sampling rate : 48.0 KHz
Bit depth : 24 bits
Compression mode : Lossy
Stream size : 1 004 MiB (22%)
Title : DTS 5.1~1.5mbps
Language : English
Default : Yes
Forced : No

1_03_04_14_11_18_28

descargar aqui

1 Solo Link para Descargar !!

http://adf.ly/kSTdK

Anuncios

Responder

Introduce tus datos o haz clic en un icono para iniciar sesión:

Logo de WordPress.com

Estás comentando usando tu cuenta de WordPress.com. Cerrar sesión / Cambiar )

Imagen de Twitter

Estás comentando usando tu cuenta de Twitter. Cerrar sesión / Cambiar )

Foto de Facebook

Estás comentando usando tu cuenta de Facebook. Cerrar sesión / Cambiar )

Google+ photo

Estás comentando usando tu cuenta de Google+. Cerrar sesión / Cambiar )

Conectando a %s