Ricky.Martin.Live.Black&White.720p.BluRay.x264

0228-500x500

Ricky.Martin.Live.Black&White.720p.BluRay

 

Canciones 

01 Intro/pégate/raza De Mil Colores/por Arriba, Por Abajo Medley (Sin)

02 Indoneasian Transition/i Don’t Care/maría Medley (Sin)

03 Vuelve

04 Revolución

05 It’s Alright

06 Livin’ La Vida Loca

07 Somos La Semilla

08 Rave Intro/drop It On Me/lola Lola/the Cup Of Life Medley (Sin)

09 Tal Vez

10 Tu Recuerdo

Detalles Tecnicos 

Format : Matroska
Format version : Version 1
File size : 8.72 GiB
Duration : 1h 39mn
Overall bit rate : 12.5 Mbps
Encoded date : UTC 2009-02-27 14:59:44
Writing application : mkvmerge v2.4.1 (‘Use Me’) built on
Dec 5 2008 18:30:05
Writing library : libebml v0.7.7 + libmatroska v0.8.1

Video
ID : 1
Format : AVC
Format/Info : Advanced Video Codec
Format profile : High@L4.1
Format settings, CABAC : Yes
Format settings, ReFrames : 5 frames
Codec ID : V_MPEG4/ISO/AVC
Duration : 1h 39mn
Bit rate : 11.0 Mbps
Width : 1 280 pixels
Height : 720 pixels
Display aspect ratio : 16:9
Frame rate : 29.970 fps
Color space : YUV
Chroma subsampling : 4:2:0
Bit depth : 8 bits
Scan type : Progressive
Bits/(Pixel*Frame) : 0.399
Stream size : 7.50 GiB (86%)
Title : H.264
Writing library : x264 core 66 r1114M a933a3e
Encoding settings : cabac=1 / ref=5 / deblock=1:-3:-3 / 0
Language : English
Default : Yes
Forced : No

Audio
ID : 2
Format : DTS
Format/Info : Digital Theater Systems
Codec ID : A_DTS
Duration : 1h 39mn
Bit rate mode : Constant
Bit rate : 1 510 Kbps
Channel(s) : 6 channels
Channel positions : Front: L C R, Side: L R, LFE
Sampling rate : 48.0 KHz
Bit depth : 24 bits
Compression mode : Lossy
Stream size : 1.05 GiB (12%)
Title : DTS5.1
Language : English
Default : Yes
Forced : No

1_03_04_14_11_18_28

descargar aqui

1 Solo Link para Descargar !!

http://adf.ly/kSbXp

Anuncios

Responder

Introduce tus datos o haz clic en un icono para iniciar sesión:

Logo de WordPress.com

Estás comentando usando tu cuenta de WordPress.com. Cerrar sesión / Cambiar )

Imagen de Twitter

Estás comentando usando tu cuenta de Twitter. Cerrar sesión / Cambiar )

Foto de Facebook

Estás comentando usando tu cuenta de Facebook. Cerrar sesión / Cambiar )

Google+ photo

Estás comentando usando tu cuenta de Google+. Cerrar sesión / Cambiar )

Conectando a %s